网红美女雪琪SAMA-真空激凸吊带白丝 收藏

[套图名称] : 网红美女雪琪SAMA-真空激凸吊带白丝
[套图尺寸] : 6016x4016
[套图大小] : 50P+1V/458.9M
[下载方式] : 百度网盘
[下载地址] : 点此获取下载地址 (售价:2积分)
下载包内为原版高清套图和视频,绝不含第三方水印!
[在线观看] : 第1段
[套图预览] : 网红美女雪琪SAMA-真空激凸吊带白丝 第1张
[视频名称] : V.mov
[视频尺寸] : 720x1280
[视频大小] : 1mov/69.8M
[视频时长] : 00:01:50
[视频编码] :
Stream #0:1(chi): Video: vc1 (Advanced) (WVC1 / 0x31435657), yuv420p, 720x1280, 5000 kb/s, SAR 1:1 DAR 9:16, 29.97 fps, 29.97 tbr, 1k tbn, 1k tbc
Stream #0:0(chi): Audio: wmapro (b[1][0][0] / 0x0162), 44100 Hz, stereo, fltp, 440 kb/s
[视频预览] : 网红美女雪琪SAMA-真空激凸吊带白丝 第1张

有用 (34)

评论加载中...