[MSLASS梦丝女神]2020.06.26 V.069 玥玥《泳池派对》视频 收藏

[套图名称] : [MSLASS梦丝女神]2020.06.26 V.069 玥玥《泳池派对》视频
[套图尺寸] : 1920x1080
[套图大小] : 4P+1V/380.2M
[下载方式] : 百度网盘
[下载地址] : 点此获取下载地址 (售价:6积分)
下载包内为原版高清套图和视频,绝不含第三方水印!
[在线观看] : 第1段
[套图预览] : [MSLASS梦丝女神]2020.06.26 V.069 玥玥《泳池派对》视频 [视频名称] : 玥玥泳池派对.mp4
[视频尺寸] : 1920x1080
[视频大小] : 1mp4/379.6M
[视频时长] : 00:05:08
[视频编码] :
Stream #0:0(eng): Video: h264 (Main) (avc1 / 0x31637661), yuv420p(tv, bt709), 1920x1080, 10000 kb/s, 25 fps, 25 tbr, 25k tbn, 50 tbc (default)
Stream #0:1(eng): Audio: aac (LC) (mp4a / 0x6134706D), 48000 Hz, stereo, fltp, 317 kb/s (default)
[视频预览] : [MSLASS梦丝女神]2020.06.26 V.069 玥玥《泳池派对》视频 第1张

有用 (2)

评论加载中...