抱走莫子 – 水晶荡漾 收藏

[套图名称] : 抱走莫子 – 水晶荡漾
[出境模特] : 抱走莫子
[套图尺寸] : 8256x5504
[套图大小] : 34P+1V/441.1M
[下载方式] : 百度网盘
[下载地址] : 点此获取下载地址 (VIP会员免积分下载)
下载包内为原版高清套图和视频,绝不含第三方水印!
[在线观看] : 第1段
[套图预览] : 抱走莫子 – 水晶荡漾 第1张
[视频名称] : V.mp4
[视频尺寸] : 3840x2160
[视频大小] : 1mp4/60.2M
[视频时长] : 00:00:42
[视频编码] :
Stream #0:0(und): Video: mpeg4 (Simple Profile) (mp4v / 0x7634706D), yuv420p, 3840x2160 [SAR 1:1 DAR 16:9], 11761 kb/s, 29.97 fps, 29.97 tbr, 30k tbn, 30k tbc (default)
Stream #0:1(eng): Audio: aac (LC) (mp4a / 0x6134706D), 48000 Hz, stereo, fltp, 134 kb/s (default)
[视频预览] : 抱走莫子 – 水晶荡漾 第1张

有用 (3)

评论加载中...