一笑芳香沁 – 箱庭妖怪 收藏

[套图名称] : 一笑芳香沁 – 箱庭妖怪
[套图尺寸] : 4608x3073
[套图大小] : 24P+1V/152.1M
[下载方式] : 百度网盘
[下载地址] : 点此获取下载地址 (VIP会员免积分下载)
下载包内为原版高清套图和视频,绝不含第三方水印!
[在线观看] : 第1段
[套图预览] : 一笑芳香沁 – 箱庭妖怪 第1张
[视频名称] : 1 (1).mp4
[视频尺寸] : 1088x608
[视频大小] : 1mp4/58.2M
[视频时长] : 00:01:35
[视频编码] :
Stream #0:1(eng): Video: h264 (High) (avc1 / 0x31637661), yuv420p(tv, smpte170m/bt470bg/smpte170m), 1088x608, 4977 kb/s, SAR 1:1 DAR 34:19, 29.99 fps, 30 tbr, 90k tbn, 180k tbc (default)
Stream #0:0(eng): Audio: aac (LC) (mp4a / 0x6134706D), 44100 Hz, stereo, fltp, 128 kb/s (default)
[视频预览] : 一笑芳香沁 – 箱庭妖怪 第1张

有用 (1)

评论加载中...