桜井宁宁 – 白い猫ちゃん 收藏

[套图名称] : 桜井宁宁 – 白い猫ちゃん
[出境模特] : 桜井宁宁
[套图尺寸] : 3392x1990
[套图大小] : 50P+1V/113.9M
[下载方式] : 百度网盘
[下载地址] : 点此获取下载地址 (VIP会员免积分下载)
下载包内为原版高清套图和视频,绝不含第三方水印!
[在线观看] : 第1段
[套图预览] : 桜井宁宁 – 白い猫ちゃん 第1张
[视频名称] : 1.mp4
[视频尺寸] : 544x960
[视频大小] : 1mp4/7.7M
[视频时长] : 00:01:00
[视频编码] :
Stream #0:0(und): Video: h264 (High) (avc1 / 0x31637661), yuv420p(tv, bt709), 544x960, 1028 kb/s, 23.85 fps, 24 tbr, 600 tbn, 1200 tbc (default)
Stream #0:1(und): Audio: aac (LC) (mp4a / 0x6134706D), 44100 Hz, mono, fltp, 47 kb/s (default)
[视频预览] : 桜井宁宁 – 白い猫ちゃん 第1张

有用 (0)

评论加载中...