[Beautyleg]HD高清影片 2021.05.04 No.1185 Rita 收藏

[视频名称] : 1185Rita.mp4
[视频尺寸] : 3840x2160
[视频大小] : 1mp4/853.4M
[视频时长] : 00:03:18
[视频编码] :
Stream #0:0(eng): Video: h264 (High) (avc1 / 0x31637661), yuv420p, 3840x2160 [SAR 1:1 DAR 16:9], 35726 kb/s, 29.97 fps, 29.97 tbr, 30k tbn, 59.94 tbc (default)
Stream #0:1(eng): Audio: aac (LC) (mp4a / 0x6134706D), 48000 Hz, stereo, fltp, 317 kb/s (default)
[下载方式] : 百度网盘
[下载地址] : 点此获取下载地址 (售价:3600积分)
下载包内为原版高清视频,绝不含第三方水印!
[在线观看] : 第1段
[视频预览] : [Beautyleg]HD高清影片 2021.05.04 No.1185 Rita

有用 (0)

评论加载中...