Nyako喵子 – 护士服 收藏

[套图名称] : Nyako喵子 – 护士服
[出境模特] : Nyako喵子
[套图尺寸] : 3000x2000
[套图大小] : 155P+4V/865.7M
[下载方式] : 百度网盘
[下载地址] : 点此获取下载地址 (VIP会员免积分下载)
下载包内为原版高清套图和视频,绝不含第三方水印!
[在线观看] : [1] [2] [3] [4]
[套图预览] : Nyako喵子 – 护士服 第1张
[视频名称] : V (1).MP4, V (2).MP4, V (3).MP4, V (4).MP4
[视频尺寸] : 1080x1440
[视频大小] : 4mp4/504.6M
[视频时长] : 00:09:12
[视频编码] :
Stream #0:0(und): Video: h264 (High) (avc1 / 0x31637661), yuv420p(tv, bt709), 1080x1440, 10604 kb/s, 30 fps, 30 tbr, 600 tbn, 1200 tbc (default)
Stream #0:1(und): Audio: aac (LC) (mp4a / 0x6134706D), 44100 Hz, stereo, fltp, 102 kb/s (default)
Stream #0:0(und): Video: h264 (High) (avc1 / 0x31637661), yuv420p(tv, bt709), 1080x1440, 10681 kb/s, 30 fps, 30 tbr, 600 tbn, 1200 tbc (default)
Stream #0:1(und): Audio: aac (LC) (mp4a / 0x6134706D), 44100 Hz, stereo, fltp, 106 kb/s (default)
Stream #0:0(und): Video: h264 (High) (avc1 / 0x31637661), yuv420p(tv, bt709), 1080x1440, 10370 kb/s, 30 fps, 30 tbr, 600 tbn, 1200 tbc (default)
Stream #0:1(und): Audio: aac (LC) (mp4a / 0x6134706D), 44100 Hz, stereo, fltp, 103 kb/s (default)
Stream #0:0(und): Video: h264 (High) (avc1 / 0x31637661), yuv420p(tv, bt709), 1080x1440, 10581 kb/s, 30 fps, 30 tbr, 600 tbn, 1200 tbc (default)
Stream #0:1(und): Audio: aac (LC) (mp4a / 0x6134706D), 44100 Hz, stereo, fltp, 105 kb/s (default)
[视频预览] : Nyako喵子 – 护士服 V (1).MP4

有用 (0)

评论加载中...