三度_69 – 精灵紧身衣 收藏

[套图名称] : 三度_69 – 精灵紧身衣
[出境模特] : 三度_69
[套图尺寸] : 5735x3713
[套图大小] : 27P+5V/230.1M
[下载方式] : 百度网盘
[下载地址] : 点此获取下载地址 (VIP会员免积分下载)
下载包内为原版高清套图和视频,绝不含第三方水印!
[在线观看] : [1] [2] [3] [4] [5]
[套图预览] : 三度_69 – 精灵紧身衣 第1张
[视频名称] : V (1).mp4, V (2).mp4, V (3).mp4, V (4).mp4, V (5).mp4
[视频尺寸] : 720x960
[视频大小] : 5mp4/16.4M
[视频时长] : 00:00:33
[视频编码] :
Stream #0:0(eng): Video: h264 (Constrained Baseline) (avc1 / 0x31637661), yuv420p, 720x960, 5164 kb/s, SAR 1:1 DAR 3:4, 29.35 fps, 90k tbr, 90k tbn, 180k tbc (default)
Stream #0:1(eng): Audio: aac (LC) (mp4a / 0x6134706D), 44100 Hz, stereo, fltp, 174 kb/s (default)
Stream #0:0(eng): Video: h264 (Constrained Baseline) (avc1 / 0x31637661), yuv420p, 720x960, 5420 kb/s, SAR 1:1 DAR 3:4, 29.99 fps, 90k tbr, 90k tbn, 180k tbc (default)
Stream #0:1(eng): Audio: aac (LC) (mp4a / 0x6134706D), 44100 Hz, stereo, fltp, 174 kb/s (default)
Stream #0:0(eng): Video: h264 (Constrained Baseline) (avc1 / 0x31637661), yuv420p(tv, bt709), 720x960, 5443 kb/s, SAR 1:1 DAR 3:4, 30.14 fps, 90k tbr, 90k tbn, 180k tbc (default)
Stream #0:1(eng): Audio: aac (LC) (mp4a / 0x6134706D), 44100 Hz, stereo, fltp, 172 kb/s (default)
Stream #0:0(eng): Video: h264 (Constrained Baseline) (avc1 / 0x31637661), yuv420p(tv, bt709), 720x960, 5360 kb/s, SAR 1:1 DAR 3:4, 29.96 fps, 90k tbr, 90k tbn, 180k tbc (default)
Stream #0:1(eng): Audio: aac (LC) (mp4a / 0x6134706D), 44100 Hz, stereo, fltp, 172 kb/s (default)
Stream #0:0(eng): Video: h264 (Constrained Baseline) (avc1 / 0x31637661), yuv420p(tv, bt709), 720x960, 5445 kb/s, SAR 1:1 DAR 3:4, 30.22 fps, 90k tbr, 90k tbn, 180k tbc (default)

[视频预览] : 三度_69 – 精灵紧身衣 V (1).mp4

有用 (0)

评论加载中...