雪琪 – 田园女仆 收藏

[套图名称] : 雪琪 – 田园女仆
[出境模特] : 雪琪
[套图尺寸] : 3265x2449
[套图大小] : 45P+3V/257.1M
[下载方式] : 百度网盘
[下载地址] : 点此获取下载地址 (VIP会员免积分下载)
下载包内为原版高清套图和视频,绝不含第三方水印!
[在线观看] : 第1段 第2段 第3段
[套图预览] : 雪琪 – 田园女仆 第1张
[视频名称] : V (1).MP4, V (2).MP4, V (3).MP4
[视频尺寸] : 720x1280
[视频大小] : 3mp4/112.6M
[视频时长] : 00:03:59
[视频编码] :
Stream #0:0(eng): Video: h264 (High) (avc1 / 0x31637661), yuv420p(tv, smpte170m/bt470bg/smpte170m), 720x1280, 5250 kb/s, SAR 1:1 DAR 9:16, 29.60 fps, 90k tbr, 90k tbn, 180k tbc (default)

Stream #0:0(eng): Video: h264 (High) (avc1 / 0x31637661), yuv420p(tv, smpte170m/bt470bg/smpte170m), 720x1280, 5253 kb/s, SAR 1:1 DAR 9:16, 29.64 fps, 90k tbr, 90k tbn, 180k tbc (default)

Stream #0:0(eng): Video: h264 (High) (avc1 / 0x31637661), yuv420p(tv, smpte170m/bt470bg/smpte170m), 720x1280, 5246 kb/s, SAR 1:1 DAR 9:16, 29.70 fps, 90k tbr, 90k tbn, 180k tbc (default)

[视频预览] : 雪琪 – 田园女仆 V (1).MP4

有用 (0)

评论加载中...