芋圆侑子SJ_ – 邻家姐姐 收藏

[套图名称] : 芋圆侑子SJ_ – 邻家姐姐
[出境模特] : 芋圆侑子SJ
[套图尺寸] : 2880x2160
[套图大小] : 206P+10V/532.1M
[下载方式] : 百度网盘
[下载地址] : 点此获取下载地址 (VIP会员免积分下载)
下载包内为原版高清套图和视频,绝不含第三方水印!
[在线观看] : [1] [2] [3] [4] [5] [6] [7] [8] [9] [10]
[套图预览] : 芋圆侑子SJ_ – 邻家姐姐 第1张
[视频名称] : V (1).MP4, V (2).MP4, V (3).MP4, V (4).MP4, V (5).MP4, V (6).MP4, V (7).MP4, V (8).mp4, V (9).mp4, V (10).mp4
[视频尺寸] : 750x1000
[视频大小] : 10mp4/288.1M
[视频时长] : 00:03:49
[视频编码] :
Stream #0:0(und): Video: h264 (High) (avc1 / 0x31637661), yuv420p(tv, smpte170m/bt709/bt709), 750x1000, 10971 kb/s, 27.37 fps, 25.25 tbr, 600 tbn, 1200 tbc (default)
Stream #0:1(und): Audio: aac (LC) (mp4a / 0x6134706D), 48000 Hz, stereo, fltp, 102 kb/s (default)
Stream #0:1(und): Video: h264 (High) (avc1 / 0x31637661), yuvj420p(pc), 720x960, 13778 kb/s, 30 fps, 30 tbr, 600 tbn, 1200 tbc (default)
Stream #0:0(und): Audio: aac (LC) (mp4a / 0x6134706D), 44100 Hz, stereo, fltp, 105 kb/s (default)
Stream #0:0(und): Video: h264 (High) (avc1 / 0x31637661), yuv420p(tv, smpte170m/bt709/bt709), 750x1000, 10297 kb/s, 27.60 fps, 27.58 tbr, 600 tbn, 1200 tbc (default)
Stream #0:1(und): Audio: aac (LC) (mp4a / 0x6134706D), 48000 Hz, stereo, fltp, 106 kb/s (default)
Stream #0:0(und): Video: h264 (High) (avc1 / 0x31637661), yuv420p(tv, smpte170m/bt709/bt709), 750x1000, 10320 kb/s, 27.60 fps, 27.58 tbr, 600 tbn, 1200 tbc (default)
Stream #0:1(und): Audio: aac (LC) (mp4a / 0x6134706D), 48000 Hz, stereo, fltp, 107 kb/s (default)
Stream #0:0(und): Video: h264 (High) (avc1 / 0x31637661), yuv420p(tv, smpte170m/bt709/bt709), 750x1000, 10330 kb/s, 25.66 fps, 25.42 tbr, 600 tbn, 1200 tbc (default)
Stream #0:1(und): Audio: aac (LC) (mp4a / 0x6134706D), 48000 Hz, stereo, fltp, 106 kb/s (default)
Stream #0:0(und): Video: h264 (High) (avc1 / 0x31637661), yuv420p(tv, smpte170m/bt709/bt709), 750x1000, 10265 kb/s, 24.97 fps, 24.33 tbr, 600 tbn, 1200 tbc (default)
Stream #0:1(und): Audio: aac (LC) (mp4a / 0x6134706D), 48000 Hz, stereo, fltp, 106 kb/s (default)
Stream #0:0(und): Video: h264 (High) (avc1 / 0x31637661), yuv420p(tv, smpte170m/bt709/bt709), 750x1000, 10314 kb/s, 27.60 fps, 27.58 tbr, 600 tbn, 1200 tbc (default)
Stream #0:1(und): Audio: aac (LC) (mp4a / 0x6134706D), 48000 Hz, stereo, fltp, 106 kb/s (default)
Stream #0:0(und): Video: h264 (High) (avc1 / 0x31637661), yuv420p(tv, smpte170m/bt709/bt709, progressive), 750x1000, 10479 kb/s, 26.51 fps, 21.67 tbr, 600 tbn, 1200 tbc (default)
Stream #0:1(und): Audio: aac (LC) (mp4a / 0x6134706D), 48000 Hz, stereo, fltp, 107 kb/s (default)
Stream #0:0(und): Video: h264 (High) (avc1 / 0x31637661), yuv420p(tv, smpte170m/bt709/bt709, progressive), 750x1000, 10509 kb/s, 27.60 fps, 27.58 tbr, 600 tbn, 1200 tbc (default)
Stream #0:1(und): Audio: aac (LC) (mp4a / 0x6134706D), 48000 Hz, stereo, fltp, 106 kb/s (default)
Stream #0:0(und): Video: h264 (High) (avc1 / 0x31637661), yuv420p(tv, smpte170m/bt709/bt709, progressive), 750x1000, 10300 kb/s, 21.69 fps, 21.67 tbr, 600 tbn, 1200 tbc (default)
Stream #0:1(und): Audio: aac (LC) (mp4a / 0x6134706D), 48000 Hz, stereo, fltp, 107 kb/s (default)
[视频预览] : 芋圆侑子SJ_ – 邻家姐姐 V (1).MP4

有用 (0)

评论加载中...