[Fairy Club妖精社]视频 H2010《美丝盛宴视频》 收藏

[视频名称] : V (1).mp4
[视频尺寸] : 1080x1920
[视频大小] : 1mp4/407.5M
[视频时长] : 00:05:34
[视频编码] :
Stream #0:0(eng): Video: h264 (Main) (avc1 / 0x31637661), yuv420p(tv, bt709), 1080x1920, 9906 kb/s, 59.94 fps, 59.94 tbr, 60k tbn, 119.88 tbc (default)
Stream #0:1(eng): Audio: aac (LC) (mp4a / 0x6134706D), 48000 Hz, stereo, fltp, 317 kb/s (default)
[下载方式] : 百度网盘
[下载地址] : 点此获取下载地址 (售价:20积分)
下载包内为原版高清视频,绝不含第三方水印!
[在线观看] : 第1段
[视频预览] : [Fairy Club妖精社]视频 H2010《美丝盛宴视频》 第1张

有用 (0)

评论加载中...