星澜是澜澜叫澜妹呀 – 浴室胶带 收藏

[套图名称] : 星澜是澜澜叫澜妹呀 – 浴室胶带
[出境模特] : 星澜是澜澜叫澜妹呀
[套图尺寸] : 7952x5304
[套图大小] : 22P+1V/117.3M
[下载方式] : 百度网盘
[下载地址] : 点此获取下载地址 (VIP会员免积分下载)
下载包内为原版高清套图和视频,绝不含第三方水印!
[在线观看] : 第1段
[套图预览] : 星澜是澜澜叫澜妹呀 – 浴室胶带 第1张
[视频名称] : V (1).mp4
[视频尺寸] : 1920x1080
[视频大小] : 1mp4/33.5M
[视频时长] : 00:00:46
[视频编码] :
Stream #0:0(eng): Video: h264 (High) (avc1 / 0x31637661), yuv420p(tv, bt709), 1920x1080 [SAR 1:1 DAR 16:9], 6078 kb/s, 29.97 fps, 29.97 tbr, 30k tbn, 59.94 tbc (default)
Stream #0:1(eng): Audio: aac (LC) (mp4a / 0x6134706D), 44100 Hz, stereo, fltp, 3 kb/s (default)
[视频预览] : 星澜是澜澜叫澜妹呀 – 浴室胶带 第1张

有用 (0)

评论加载中...