雪琪 – 黑丝JK死库水 收藏

[套图名称] : 雪琪 – 黑丝JK死库水
[出境模特] : 雪琪
[套图尺寸] : 6016x4016
[套图大小] : 65P+3V/547.9M
[下载方式] : 百度网盘
[下载地址] : 点此获取下载地址 (VIP会员免积分下载)
下载包内为原版高清套图和视频,绝不含第三方水印!
[在线观看] : 第1段 第2段 第3段
[套图预览] : 雪琪 – 黑丝JK死库水 第1张
[视频名称] : V (1).mp4, V (2).mp4, V (3).mp4
[视频尺寸] : 720x1280
[视频大小] : 3mp4/150.0M
[视频时长] : 00:03:29
[视频编码] :
Stream #0:0(und): Video: h264 (High) (avc1 / 0x31637661), yuv420p, 720x1280, 8054 kb/s, 15.82 fps, 30 tbr, 600 tbn, 1200 tbc (default)

Stream #0:0(und): Video: h264 (High) (avc1 / 0x31637661), yuv420p, 720x1280, 8861 kb/s, 18.22 fps, 30 tbr, 600 tbn, 1200 tbc (default)

Stream #0:0(und): Video: h264 (High) (avc1 / 0x31637661), yuv420p, 720x1280, 8247 kb/s, 15.95 fps, 30 tbr, 600 tbn, 1200 tbc (default)

[视频预览] : 雪琪 – 黑丝JK死库水 V (1).mp4

有用 (0)

评论加载中...