芋圆侑子SJ_ – 人妻围裙 收藏

[套图名称] : 芋圆侑子SJ_ – 人妻围裙
[出境模特] : 芋圆侑子SJ
[套图尺寸] : 4500x3000
[套图大小] : 243P+10V/812.2M
[下载方式] : 百度网盘
[下载地址] : 点此获取下载地址 (VIP会员免积分下载)
下载包内为原版高清套图和视频,绝不含第三方水印!
[在线观看] : [1] [2] [3] [4] [5] [6] [7] [8] [9] [10]
[套图预览] : 芋圆侑子SJ_ – 人妻围裙 第1张
[视频名称] : V (1).MP4, V (2).MP4, V (3).MP4, V (4).MP4, V (5).MP4, V (6).MP4, V (7).MP4, V (8).MP4, V (9).MP4, V (10).mp4
[视频尺寸] : 720x960
[视频大小] : 10mp4/223.9M
[视频时长] : 00:03:08
[视频编码] :
Stream #0:1(und): Video: h264 (High) (avc1 / 0x31637661), yuvj420p(pc), 720x960, 13913 kb/s, 30 fps, 30 tbr, 600 tbn, 1200 tbc (default)
Stream #0:0(und): Audio: aac (LC) (mp4a / 0x6134706D), 44100 Hz, stereo, fltp, 104 kb/s (default)
Stream #0:0(und): Video: h264 (High) (avc1 / 0x31637661), yuv420p(tv, smpte170m/bt709/bt709), 750x1000, 10561 kb/s, 29.59 fps, 29.25 tbr, 600 tbn, 1200 tbc (default)
Stream #0:1(und): Audio: aac (LC) (mp4a / 0x6134706D), 48000 Hz, stereo, fltp, 103 kb/s (default)
Stream #0:0(und): Video: h264 (High) (avc1 / 0x31637661), yuv420p(tv, smpte170m/bt709/bt709), 750x1000, 10314 kb/s, 29.36 fps, 30 tbr, 600 tbn, 1200 tbc (default)
Stream #0:1(und): Audio: aac (LC) (mp4a / 0x6134706D), 48000 Hz, stereo, fltp, 105 kb/s (default)
Stream #0:0(und): Video: h264 (High) (avc1 / 0x31637661), yuv420p(tv, smpte170m/bt709/bt709), 750x1000, 10370 kb/s, 28.55 fps, 600 tbr, 600 tbn, 1200 tbc (default)
Stream #0:1(und): Audio: aac (LC) (mp4a / 0x6134706D), 48000 Hz, stereo, fltp, 105 kb/s (default)
Stream #0:0(und): Video: h264 (High) (avc1 / 0x31637661), yuv420p(tv, smpte170m/bt709/bt709), 750x1000, 10277 kb/s, 29.68 fps, 29.83 tbr, 600 tbn, 1200 tbc (default)
Stream #0:1(und): Audio: aac (LC) (mp4a / 0x6134706D), 48000 Hz, stereo, fltp, 105 kb/s (default)
Stream #0:0(und): Video: h264 (High) (avc1 / 0x31637661), yuv420p(tv, smpte170m/bt709/bt709), 750x1000, 10200 kb/s, 25.69 fps, 600 tbr, 600 tbn, 1200 tbc (default)
Stream #0:1(und): Audio: aac (LC) (mp4a / 0x6134706D), 48000 Hz, stereo, fltp, 105 kb/s (default)
Stream #0:0(und): Video: h264 (High) (avc1 / 0x31637661), yuv420p(tv, smpte170m/bt709/bt709), 750x1000, 10453 kb/s, 25.45 fps, 27.42 tbr, 600 tbn, 1200 tbc (default)
Stream #0:1(und): Audio: aac (LC) (mp4a / 0x6134706D), 48000 Hz, stereo, fltp, 104 kb/s (default)
Stream #0:0(und): Video: h264 (High) (avc1 / 0x31637661), yuv420p(tv, smpte170m/bt709/bt709), 750x1000, 10385 kb/s, 29.72 fps, 30 tbr, 600 tbn, 1200 tbc (default)
Stream #0:1(und): Audio: aac (LC) (mp4a / 0x6134706D), 48000 Hz, stereo, fltp, 116 kb/s (default)
Stream #0:0(und): Video: h264 (High) (avc1 / 0x31637661), yuv420p(tv, smpte170m/bt709/bt709), 750x1000, 10504 kb/s, 21.63 fps, 21.67 tbr, 600 tbn, 1200 tbc (default)
Stream #0:1(und): Audio: aac (LC) (mp4a / 0x6134706D), 48000 Hz, stereo, fltp, 105 kb/s (default)
Stream #0:1(und): Video: h264 (High) (avc1 / 0x31637661), yuv420p(tv, smpte170m/bt709/bt709), 750x1000, 10352 kb/s, SAR 1:1 DAR 3:4, 23.40 fps, 24.17 tbr, 90k tbn, 180k tbc (default)
Stream #0:0(und): Audio: aac (LC) (mp4a / 0x6134706D), 48000 Hz, stereo, fltp, 102 kb/s (default)
[视频预览] : 芋圆侑子SJ_ – 人妻围裙 V (1).MP4

有用 (0)

评论加载中...