起司块wii – 甘古特 收藏

[套图名称] : 起司块wii – 甘古特
[出境模特] : 起司块wii
[套图尺寸] : 5760x3840
[套图大小] : 51P+5V/415.6M
[下载方式] : 百度网盘
[下载地址] : 点此获取下载地址 (VIP会员免积分下载)
下载包内为原版高清套图和视频,绝不含第三方水印!
[在线观看] : [1] [2] [3] [4] [5]
[套图预览] : 起司块wii – 甘古特 第1张
[视频名称] : V (1).mp4, V (2).mp4, V (3).mp4, V (4).mp4, V (5).mp4
[视频尺寸] : 750x1000
[视频大小] : 5mp4/28.7M
[视频时长] : 00:01:01
[视频编码] :
Stream #0:0(und): Video: h264 (High) (avc1 / 0x31637661), yuv420p(tv, smpte170m/bt709/bt709, progressive), 750x1000, 5298 kb/s, 23.15 fps, 600 tbr, 600 tbn, 1200 tbc (default)
Stream #0:1(und): Audio: aac (LC) (mp4a / 0x6134706D), 44100 Hz, mono, fltp, 62 kb/s (default)
Stream #0:0(und): Video: h264 (High) (avc1 / 0x31637661), yuv420p(tv, smpte170m/bt709/bt709, progressive), 1000x750, 5286 kb/s, 24.87 fps, 24.83 tbr, 600 tbn, 1200 tbc (default)
Stream #0:1(und): Audio: aac (LC) (mp4a / 0x6134706D), 44100 Hz, mono, fltp, 62 kb/s (default)
Stream #0:0(und): Video: h264 (High) (avc1 / 0x31637661), yuv420p(tv, smpte170m/bt709/bt709, progressive), 750x1000, 5355 kb/s, 17.77 fps, 17.75 tbr, 600 tbn, 1200 tbc (default)
Stream #0:1(und): Audio: aac (LC) (mp4a / 0x6134706D), 44100 Hz, mono, fltp, 63 kb/s (default)
Stream #0:0(und): Video: h264 (High) (avc1 / 0x31637661), yuv420p(tv, smpte170m/bt709/bt709, progressive), 750x420, 3677 kb/s, 30 fps, 30 tbr, 600 tbn, 1200 tbc (default)
Stream #0:1(und): Audio: aac (LC) (mp4a / 0x6134706D), 44100 Hz, mono, fltp, 64 kb/s (default)
Stream #0:0(und): Video: h264 (High) (avc1 / 0x31637661), yuv420p(tv, smpte170m/bt709/bt709, progressive), 420x750, 3770 kb/s, 30 fps, 30 tbr, 600 tbn, 1200 tbc (default)
Stream #0:1(und): Audio: aac (LC) (mp4a / 0x6134706D), 44100 Hz, mono, fltp, 63 kb/s (default)
[视频预览] : 起司块wii – 甘古特 V (1).mp4

有用 (0)

评论加载中...